CHD高清论坛

 找回密码
 立即注册

QQ登录

只需一步,快速开始

搜索
热搜: 活动 交友 discuz
查看: 1749|回复: 97

[动作片] 钢铁骑士超能量战士.Max.Steel.2016.1080p.BluRay.DTS.x264-HDS

  [复制链接]
发表于 2017-1-5 10:24:06 | 显示全部楼层 |阅读模式
◎译  名 钢铁骑士/超能量战士(港/台)/钢铁麦斯
◎片  名 Max Steel
◎年  代 2016
◎国  家 美国
◎类  别 动作/科幻/冒险
◎语  言 英语
◎上映日期 2016-10-14(美国)/2016-11-01(中国大陆)
◎IMDb评分  4.6/10 from 2,987 users
◎豆瓣评分 3.7/10 from 629 users
◎BT之家整理 http://www.btbtt.co  
◎片  长 92分钟
◎导  演 斯特瓦特·亨德尔 Stewart Hendler
◎主  演 本·温切尔 Ben Winchell
      乔什·布雷纳 Josh Brener
      玛丽亚·贝罗 Maria Bello
      安迪·加西亚 Andy Garcia
      Ana Villafañe
      麦克·道尔 Mike Doyle
      Phillip DeVona
      比利·斯洛特 Billy Slaughter
      Al Mitchell
      Lawrence Kao
      Brett Gentile
      Jahnee Wallace
      Avis-Marie Barnes
      Brandon Larracuente
      Clayton Frey

◎简  介

  “钢铁骑士”曾是美泰一款风行全球的男孩人偶玩具,也曾被拍成电视系列动画片,此次真人电影版的故事是《雷神2:黑暗世界》(Thor: The Dark World)编剧克里斯托弗·约斯特(Christopher Yost)原创的。故事讲述16岁男孩麦克斯(Max McGrath)和母亲居住在一个小镇上,他的科学家父亲当年在他出生后不久就神秘死亡,麦克斯拥有一种他自己都无法控制的超强能量,直到遇到有着先进技术的外星人Steel后,才学会运用它,“钢铁骑士”就此诞生!

Complete name : Max.Steel.2016.1080p.BluRay.DTS.x264-HDS.mkv
Format : Matroska
Format version : Version 4 / Version 2
File size : 6.25 GiB
Duration : 1 h 32 min
Overall bit rate : 9 673 kb/s
Movie name : Max Steel 2016 1080p BluRay DTS x264-HDS
Encoded date : UTC 2017-01-04 04:22:57
Writing application : mkvmerge v9.7.1 (\'Pandemonium\') 64bit
Writing library : libebml v1.3.4 + libmatroska v1.4.5

Video
ID : 1
Format : AVC
Format/Info : Advanced Video Codec
Format profile : High@L4.1
Format settings, CABAC : Yes
Format settings, ReFrames : 5 frames
Codec ID : V_MPEG4/ISO/AVC
Duration : 1 h 32 min
Bit rate : 8 150 kb/s
Width : 1 920 pixels
Height : 800 pixels
Display aspect ratio : 2.40:1
Frame rate mode : Constant
Frame rate : 23.976 (23976/1000) FPS
Color space : YUV
Chroma subsampling : 4:2:0
Bit depth : 8 bits
Scan type : Progressive
Bits/(Pixel*Frame) : 0.221
Stream size : 5.26 GiB (84%)
Title : 剑心@HDSky
Writing library : x264 core 148 r2705+45 bdacf7a 7mod [8-bit@all X86_64]
Encoding settings : cabac=1 / ref=5 / deblock=1:-3:-3 / analyse=0x3:0x113 / me=umh / subme=11 / psy=1 / fade_compensate=0.00 / psy_rd=1.00:0.05 / mixed_ref=1 / me_range=32 / chroma_me=1 / trellis=2 / 8x8dct=1 / cqm=0 / deadzone=21,11 / fast_pskip=0 / chroma_qp_offset=-2 / threads=32 / lookahead_threads=5 / sliced_threads=0 / nr=0 / decimate=1 / interlaced=0 / bluray_compat=0 / constrained_intra=0 / fgo=0 / bframes=8 / b_pyramid=2 / b_adapt=2 / b_bias=0 / direct=3 / weightb=1 / open_gop=0 / weightp=2 / keyint=250 / keyint_min=23 / scenecut=40 / intra_refresh=0 / rc_lookahead=40 / rc=crf / mbtree=0 / crf=17.2000 / qcomp=0.60 / qpmin=0:0:0 / qpmax=69:69:69 / qpstep=4 / vbv_maxrate=50000 / vbv_bufsize=40000 / crf_max=0.0 / nal_hrd=none / filler=0 / ip_ratio=1.40 / pb_ratio=1.30 / aq=4:0.90 / aq-sensitivity=10.00 / aq-factor=1.00:1.00:1.00 / aq2=0 / aq3=0
Default : Yes
Forced : No

Audio
ID : 2
Format : DTS
Format/Info : Digital Theater Systems
Mode : 16
Format settings, Endianness : Big
Codec ID : A_DTS
Duration : 1 h 32 min
Bit rate mode : Constant
Bit rate : 1 509 kb/s
Channel(s) : 6 channels
Channel positions : Front: L C R, Side: L R, LFE
Sampling rate : 48.0 kHz
Frame rate : 93.750 FPS (512 spf)
Bit depth : 24 bits
Compression mode : Lossy
Stream size : 998 MiB (16%)
Title : English
Language : English
Default : Yes
Forced : No

Text
ID : 3
Format : PGS
Muxing mode : zlib
Codec ID : S_HDMV/PGS
Codec ID/Info : Picture based subtitle format used on BDs/HD-DVDs
Duration : 1 h 25 min
Bit rate : 12.4 kb/s
Count of elements : 2578
Stream size : 7.59 MiB (0%)
Title : ENG
Language : English
Default : Yes
Forced : No

Menu
00:00:00.000 : en:00:00:00.000
00:04:43.283 : en:00:04:43.283
00:10:19.494 : en:00:10:19.494
00:15:11.911 : en:00:15:11.911
00:19:45.142 : en:00:19:45.142
00:23:05.342 : en:00:23:05.342
00:26:47.147 : en:00:26:47.147
00:30:20.277 : en:00:30:20.277
00:35:22.495 : en:00:35:22.495
00:38:15.668 : en:00:38:15.668
00:43:01.287 : en:00:43:01.287
00:48:07.510 : en:00:48:07.510
00:54:16.378 : en:00:54:16.378
01:00:07.062 : en:01:00:07.062
01:03:43.361 : en:01:03:43.361
01:08:38.197 : en:01:08:38.197
01:13:22.940 : en:01:13:22.940
01:19:59.628 : en:01:19:59.628
01:24:29.982 : en:01:24:29.982
01:26:45.826 : en:01:26:45.826



Click Image To View Full Size


Click To View Screenshot
Click To View Screenshot
Click To View Screenshot







回复下载:




游客,如果您要查看本帖隐藏内容请回复

本帖子中包含更多资源

您需要 登录 才可以下载或查看,没有帐号?立即注册

x
回复

使用道具 举报

发表于 2017-1-5 21:43:06 | 显示全部楼层
男人福利 你懂得
http://t.cn/RfB2kE1 ←_←点击进入
http://t.cn/RfB2kE1 ←_←点击进入
美女大秀 精彩视频等着你

回复 支持 1 反对 0

使用道具 举报

发表于 2017-1-5 10:26:09 | 显示全部楼层
謝謝樓主分享
回复 支持 反对

使用道具 举报

发表于 2017-1-5 10:31:33 | 显示全部楼层
谢谢管理员分享
回复 支持 反对

使用道具 举报

发表于 2017-1-5 10:41:25 | 显示全部楼层
谢谢管理员分享
回复 支持 反对

使用道具 举报

发表于 2017-1-5 10:46:51 | 显示全部楼层
这个好看  谢谢楼主大人!!! 喜欢看男人邪恶漫画可以来  www.517cg.net 真的好看
回复 支持 反对

使用道具 举报

发表于 2017-1-5 11:12:53 | 显示全部楼层
Thanks for your share.
回复 支持 反对

使用道具 举报

发表于 2017-1-5 11:27:10 | 显示全部楼层
thank you very much
回复 支持 反对

使用道具 举报

发表于 2017-1-5 11:27:35 | 显示全部楼层
怎么下载啊,有人教一下了。
回复 支持 反对

使用道具 举报

发表于 2017-1-5 11:28:22 | 显示全部楼层
谢谢管理员分享
回复 支持 反对

使用道具 举报

发表于 2017-1-5 11:34:04 | 显示全部楼层
感谢楼主分享。
回复 支持 反对

使用道具 举报

您需要登录后才可以回帖 登录 | 立即注册

本版积分规则

快速回复 返回顶部 返回列表